Infinity

Welcome to infinity!!

1. Please abide by the rules.
2. Dont post adult contents.
3. Hit thank if you like any post.
4. Dont be afraid If you want anything just request in request section.
5. If someone has any suggestion or tips please PM the admin

Join us on facebook : https://www.facebook.com/groups/infinity2012/

- the infinity team

Get your free apps, gamez, androids, moviez, managa and more here


    [audio] TED 2012 TS XVID - T R M

    Share

    Admin
    Admin

    Posts : 8
    Points : 21
    Reputation : 0
    Join date : 2012-08-20

    [audio] TED 2012 TS XVID - T R M

    Post  Admin on Wed Sep 19, 2012 12:06 am

    TED 2012 TS XVID - T R M | 905 MB
    IMDB:
    http://www.imdb.com/title/tt1637725/

    SOURCES:
    AUDIO - CM8
    VIDEO - Kingdom

    STATS:

    Video
    ID : 0
    Format : MPEG-4 Visual
    Format profile : Advanced Simple@L5
    Format settings, BVOP : 2
    Format settings, QPel : No
    Format settings, GMC : No warppoints
    Format settings, Matrix : Default (MPEG)
    Muxing mode : Packed bitstream
    Codec ID : XVID
    Codec ID/Hint : XviD
    Duration : 1h 39mn
    Bit rate : 1 116 Kbps
    Width : 608 pixels
    Height : 352 pixels
    Display aspect ratio : 16:9
    Frame rate : 29.970 fps
    Color space : YUV
    Chroma subsampling : 4:2:0
    Bit depth : 8 bits
    Scan type : Progressive
    Compression mode : Lossy
    Bits/(Pixel*Frame) : 0.174
    Stream size : 797 MiB (89%)
    Writing library : XviD 64

    Audio
    ID : 1
    Format : MPEG Audio
    Format version : Version 1
    Format profile : Layer 3
    Mode : Joint stereo
    Mode extension : MS Stereo
    Codec ID : 55
    Codec ID/Hint : MP3
    Duration : 1h 39mn
    Bit rate mode : Constant
    Bit rate : 128 Kbps
    Channel(s) : 2 channels
    Sampling rate : 44.1 KHz
    Compression mode : Lossy
    Stream size : 91.4 MiB (10%)
    Alignment : Split accross interleaves
    Interleave, duration : 33 ms (1.00 video frame)
    Interleave, preload duration : 500 ms

    WORKDONE:

    Ok thought we'd give one a whirl.....so took the kindgom release and tried too upscale it the best we could
    without going too far.
    To get it this high we had too use smoothers to keep the noise at bay.We also used the perspective filter to pull the
    right handside out aswell as levelling up the video.Now video not totally straight,because to do so we would have to had
    cropped a fair bit more and didn't want to do that.
    After that we need to fix the AR and then filter the brightness,chroma etc.....before finally adding some sharpness back.
    Audio we used cm8s line and we made a offset of -16600ms to line it up with our encode then we save the file and then cleaned
    and convert the ac3 track too mp3 and remuxed.

    Even if you don't grab this release ...please just grab the sample ...so fooking funny lmfao.


    TED 2012 TS XVID - T R M
    Download Single Extraction from Netload.in

    http://www.netload.in/dateiM9014PC06A/TED 2012 TS XVID - T.R.M.rar.htm

    Download Single Extraction from Extabit.com

    TED 2012 TS XVID - T.R.M.rar

      Current date/time is Mon Apr 24, 2017 6:34 am